#TITLE:Zenius -I- vanisher;
#SUBTITLE:~Sky Fid original~;
#ARTIST:Tatsh;
#TITLETRANSLIT:;
#SUBTITLETRANSLIT:;
#ARTISTTRANSLIT:;
#CREDIT:;
#BANNER:zenius -banner-.png;
#BACKGROUND:zenius -bg-.png;
#LYRICSPATH:;
#CDTITLE:sky fid.png;
#MUSIC:zenius edit.mp3;
#OFFSET:-0.073;
#SAMPLESTART:66.300;
#SAMPLELENGTH:12.000;
#SELECTABLE:YES;
#BPMS:0.000=160.040;
#STOPS:175.500=0.380
;
#BGCHANGES:;
// cache tags:
#FIRSTBEAT:0.000;
#LASTBEAT:282.500;
#SONGFILENAME:Songs/Chilean Keyboard Megapack 3/(Sky Fid) Zenius -I- vanisher/Zenius -I- vanisher.sm;
#HASMUSIC:1;
#HASBANNER:1;
#MUSICLENGTH:112.640;
// end cache tags

//---------------dance-single - ----------------
#NOTES:
     dance-single:
     :
     Challenge:
     12:
     1.000,1.000,1.000,1.000,1.000,756.000,179.000,140.000,0.000,9.000:
2002
0000
0000
0000
0000
3003
0110
0000
0000
0000
0000
0000
,
0000
0000
0000
0000
,
0001
0100
0010
0000
1100
0000
0000
0001
1000
0001
0100
0000
0110
0000
1100
0000
,
0011
0000
0000
0000
1001
0000
0000
0010
1000
0001
0010
0000
0110
0000
0100
1000
,
0011
0000
0000
0000
0101
0000
1000
0100
0010
0100
1000
0000
0010
1000
0001
0000
,
0110
0000
0000
0000
1001
0000
0100
0001
0010
0100
1000
0000
0010
1000
0001
0010
,
1100
0000
0001
0000
0100
0010
0000
1001
0000
0000
1100
0000
0001
1000
0000
0110
,
0000
0000
1001
0000
0010
1000
0000
1100
0000
0000
1001
0000
0100
0001
0000
1010
,
0000
0000
0110
0000
0001
0010
0000
1100
0000
0000
0101
0000
0001
1000
0000
1100
,
0000
0000
0110
0000
1000
0010
0000
0101
0000
0000
0100
0010
1000
0010
0101
0010
,
1001
0000
0101
0000
0010
0001
0000
1100
0000
0010
1000
0000
0001
1000
0000
0101
,
0000
0100
1000
0000
0001
0010
0000
1100
0000
0100
0001
0000
0010
1000
0000
0110
,
0000
0010
1000
0000
0100
0001
0000
1001
0000
0100
0010
0000
0001
1000
0000
0011
,
0000
1000
0100
0000
0010
1000
0000
1010
0000
0100
1000
0000
0010
0100
0000
1010
,
0000
0001
0100
0000
1001
0100
0000
0110
0000
0001
0100
0000
1010
0001
0000
1100
,
0000
0100
0010
0000
1100
0001
0000
0110
0000
0001
0100
0000
1010
0100
0000
1001
,
0000
1100
0010
0000
1100
0001
0000
0101
0010
0000
1001
0010
0000
0100
2002
3003
,
1020
0000
0000
0000
0000
0000
0030
0000
0000
2002
0000
0000
3003
0000
0000
0000
0000
0000
2001
0000
0000
0000
3000
0000
0201
0000
0000
0000
0300
0000
1020
0000
0000
0000
0030
0000
1002
0000
0000
0000
0003
0000
0210
0000
0000
0000
0300
0000
,
0022
0000
0033
0000
1001
0000
0100
0010
1000
0100
0010
1000
0100
0010
1000
0100
,
0010
0001
1000
0010
0100
0010
1000
0100
0001
0100
0010
1000
0010
0001
1000
0001
,
0100
0010
0001
0010
1000
0001
1100
0000
0001
0100
0010
0001
0100
0010
0001
0100
,
0010
0001
1000
0001
0010
1000
0010
0100
1000
0100
0001
0100
1000
0001
0100
0001
,
1000
0010
0100
0001
0010
0000
1001
0000
0010
0100
1000
0010
0100
1000
0010
0100
,
1000
0100
0010
0001
0100
1000
0100
0001
0010
0100
0001
0100
1000
0001
1000
0001
,
0010
0100
0010
0001
0100
1000
0110
0000
0001
0100
0010
1000
0100
0010
0100
1000
,
0021
0000
0100
0000
0031
0000
1001
0100
0000
0010
1000
0000
1100
0000
0001
0010
,
0202
0300
1010
0003
0100
0000
0000
0000
0010
1000
0000
0001
0100
0000
0001
0100
,
1020
0000
0000
0000
0030
0000
0100
0000
0000
0000
0000
0000
0100
0000
0000
0000
0000
0000
0010
0000
0000
0100
0000
0000
0001
0000
0000
0000
0000
0000
0102
0000
0000
0003
0000
0000
1200
0000
0000
0300
0000
0000
0010
0000
0000
0000
0000
0000
,
2001
3000
0001
0000
1001
0000
0100
0010
1000
0000
2010
3000
0200
0300
0021
0030
,
2001
3000
0001
0000
0100
0000
0010
0100
2002
0000
3013
0100
0000
0001
0100
0000
,
2002
0000
3013
0000
0100
0001
0010
0100
1000
0000
1200
0300
0012
0003
0200
0300
,
0120
0030
0001
0000
1000
0010
0100
0001
0010
0000
0001
1000
0000
0001
0010
0000
,
2010
3000
0010
0000
1000
0010
1000
0100
0010
0000
0120
0030
1200
0300
0021
0030
,
1002
0003
1000
0000
0100
0000
0020
0030
0000
1000
0100
0000
0110
0000
0001
0100
,
0011
1000
0010
1000
0001
0100
0010
0001
1000
0100
0001
1000
0010
1000
0001
0100
,
1000
0001
0010
1000
0001
0100
0010
1000
0100
0001
1000
0010
0001
0100
0001
0010
,
0001
1000
0010
0100
1000
0001
0010
0100
0010
1000
0100
0010
1000
0001
0100
1000
,
0001
0100
0010
1000
0010
0100
1000
0001
0010
1000
0001
0010
0001
0100
0010
1000
,
0100
0001
1000
0010
0100
1000
0010
0100
1000
0001
0010
1000
0010
0001
1000
0100
,
0010
0001
1000
0100
0010
1000
0001
0100
0001
0010
1000
0001
1000
0010
0001
0100
,
0010
1000
0100
0010
0001
1000
0100
0010
0001
1000
0100
0010
0001
1000
0100
0010
,
0001
0010
0100
1000
0010
0100
0001
1000
0100
0001
0100
1000
0010
0001
0010
0100
,
2001
3100
0001
0010
0201
1300
0001
0100
1020
0130
0010
0100
1002
0103
0010
0001
,
0120
0031
0100
0010
1200
0301
0010
0100
2010
3100
0001
0010
1100
0001
1200
0000
,
0300
0001
0010
0100
0020
0030
0000
0001
1000
0000
0001
0010
0000
0100
1000
0000
,
2001
3000
0001
0010
0100
1000
0010
0000
1010
0000
0100
0000
1002
0003
2000
3100
,
0000
0100
0020
0030
0202
0303
0000
0000
2100
3000
0002
0003
1000
0010
1000
0000
,
1100
0000
2001
0000
3002
0000
0023
0000
1031
0000
0001
0000
0102
0003
0010
1000
,
0000
0000
0000
0010
0000
0000
0100
0000
0000
0010
0000
0000
1002
0000
0000
0000
0003
0000
0010
0000
0000
0000
0000
0000
0100
0000
0000
0000
0000
0000
1000
0000
0000
0010
0000
0000
0100
0000
0000
0000
0000
0000
0120
0000
0000
0000
0030
0000
,
0201
0000
0000
0000
0300
0000
0010
0000
0000
0000
0000
0000
2100
0000
0000
0001
3000
0000
0000
0000
0000
0100
0000
0000
1000
0000
0000
0000
0000
0000
0110
0000
0000
0000
0000
0000
0012
0000
0000
0000
0003
0000
1000
0000
0000
0020
0000
0000
,
0130
1000
0010
0000
1002
0000
0100
0000
0113
0000
1000
0000
2020
3000
0230
0300
,
2002
0000
0003
0000
3102
0000
0000
0000
0103
0000
0000
0000
1100
0000
0000
0000
0100
0000
0000
0000
0110
0000
0000
0000
2000
0000
0010
3000
0200
0000
0001
0300
,
0020
0000
0000
0000
0000
0000
0000
0000
0000
0000
0000
0000
0100
0000
0000
0000
0000
0000
0030
0000
0000
0000
0000
0000
0002
0000
0000
0000
0000
0000
0000
0000
0000
0000
0000
0000
0100
0000
0000
0000
0000
0000
0003
0000
0000
0000
0000
0000
2002
0000
0000
0000
0000
0000
0000
0000
0000
0000
0000
0000
0000
0000
0000
0000
0000
0000
3003
0000
0000
0000
0000
0000
0010
0000
0000
0000
0000
0000
0000
0000
0000
0000
0000
0000
0000
0000
0000
0000
0000
0000
0000
0000
0000
0000
0000
0000
0100
0000
0000
0000
0000
0000
0000
0000
0000
0000
0000
0000
0000
0000
0000
0000
0000
0000
0000
0000
0000
0000
0000
0000
2001
0000
0000
0000
0000
0000
0000
0000
0000
0000
0000
0000
0000
0000
0000
0000
3000
0000
0000
0000
0000
0000
0000
0000
0101
0000
0000
0000
0000
0000
0000
0000
0000
0000
0000
0000
0000
0000
0000
0000
0000
0000
0000
0000
0000
0000
0000
0000
0011
0000
0000
0000
0000
0000
0000
0000
0000
0000
0000
0000
0000
0000
0000
0000
0000
0000
0000
0000
0000
0000
0000
0000
,
1200
0000
0000
0000
0300
0000
1010
0000
0000
0000
0000
0000
0010
0000
0000
0000
0000
0000
0020
0000
0000
0000
0000
0000
0000
0000
0000
0030
0000
0000
1000
0000
0000
0010
0000
0000
0100
0000
0000
0000
0000
0000
0120
0000
0000
0030
0000
0000
,
0102
0003
0210
0300
1000
0100
0001
0000
0110
0000
2002
3013
0200
0301
2200
3301
,
0020
0000
0000
0000
0000
0000
0000
0000
0000
0000
0000
0000
1030
0000
0000
0000
0000
0000
0000
0000
0000
0000
0000
0000
0022
0000
0000
0000
0000
0000
0000
0000
0000
0000
0000
0000
0000
0000
0000
0000
0000
0000
0033
0000
0000
0000
0000
0000
1100
0000
0000
0000
0000
0000
0000
0000
0000
0000
0000
0000
0000
0000
0000
0000
0000
0000
0000
0000
0000
0000
0000
0000
0201
0000
0000
0000
0000
0000
0000
0000
0000
0000
0000
0000
0000
0000
0000
0000
0300
0000
0000
0000
0000
0000
0000
0000
1000
0000
0000
0000
0000
0000
0000
0000
0000
0000
0000
0000
0000
0000
0000
0000
0000
0000
0000
0000
0000
0000
0000
0000
0001
0000
0000
0000
0000
0000
0000
0000
0000
0000
0000
0000
0000
0000
0000
0000
0000
0000
0000
0000
0000
0000
0000
0000
0020
0000
0000
0000
0000
0000
0000
0000
0000
0000
0000
0000
0130
0000
0000
0000
0000
0000
0000
0000
0000
0000
0000
0000
1000
0000
0000
0000
0000
0000
0000
0000
0000
0000
0000
0000
0010
0000
0000
0000
0000
0000
0000
0000
0000
0000
0000
0000
,
0120
0000
0000
0030
0000
0000
0102
0000
0000
0003
0000
0000
0200
0000
0000
0300
0000
0000
1010
0000
0000
0000
0000
0000
1001
0000
0000
0000
0000
0000
0100
0000
0000
0000
0000
0000
0010
0000
0000
0000
0000
0000
0201
0000
0000
0000
0300
0000
,
0010
0000
0000
1000
0000
0000
0001
0000
0000
0100
0000
0000
2000
0000
0000
0000
3000
0000
0101
0000
0000
0000
0000
0000
0020
0000
0000
0000
0030
0000
2001
0000
0000
0000
0000
0000
3020
0000
0000
0130
0000
0000
0001
0000
0000
1000
0000
0000
,
0000
0000
0000
0001
0000
0000
0010
0000
0000
0001
0000
0000
1200
0000
0000
0300
0000
0000
0001
0000
0000
0000
0000
0000
1020
0000
0000
0000
0030
0000
0100
0000
0000
0000
0000
0000
1001
0000
0000
0000
0000
0000
2100
0000
0000
0000
0000
0000
,
0010
0000
0000
0000
0000
0000
3101
0000
0000
0000
0000
0000
0002
0000
0000
0013
0000
0000
0100
0000
0000
0010
0000
0000
0001
0000
0000
1000
0000
0000
0010
0000
0000
1000
0000
0000
0220
0000
0300
0031
0000
0000
0100
0000
0000
0010
0000
0000
,
2200
0000
0300
3001
0000
0000
0010
0000
0000
0100
0000
0000
2020
0000
3000
0000
0000
0000
0130
0000
0000
0000
0000
0000
1000
0000
0000
0000
0000
0000
0012
0000
0000
0003
0000
0000
0200
0000
0000
0300
0000
0000
0001
0000
0000
1000
0000
0000
,
0000
0001
0100
0000
0201
0300
0010
0000
1000
0000
0100
0010
0100
0000
1010
0000
,
0100
0001
1000
0001
0120
0030
2001
3000
0100
0000
0012
0003
1000
0000
0001
0010
,
1000
0010
0001
0000
1200
0300
0001
0100
1020
0030
1000
0001
0210
0300
0100
0010
,
1002
0003
1000
0001
0102
0003
1000
0000
0200
0000
0010
0300
2001
3000
0100
0000
,
0201
0300
0001
1000
0100
0000
0210
0300
0010
0000
0001
0000
2010
3000
0201
0000
,
1300
0000
0000
0210
1300
0000
0101
0000
0010
0000
0100
0000
0012
0003
2000
3000
,
0001
0100
0001
0000
1200
0300
0001
0000
1020
0000
0000
0000
0130
0001
0020
0030
,
1100
0000
0011
0000
2002
0000
0000
3003
0010
0000
0000
0000
0100
0000
0000
0000
,
1010
0000
0001
0000
0110
0000
1001
0011
,
1010
0110
2200
0000
0000
3300
0000
0000
;
